[Rafael Biriba] FFmpeg: Conversão de mp4 para wmv

FFmpeg: http://www.ffmpeg.org/

FFmpeg: http://www.ffmpeg.org/

Mês passado, tive que fazer uma conversão deste tipo. Eu possuia um vídeo em mp4 e precisava converter para wmv, para que o mesmo fosse executado no windows utilizando o codec nativo, sem utilizar nenhum codec adicional para isso.

O Arquivo .MP4:
Stream #0.0(und): Video: h264, yuv420p, 480×360 [PAR 0:1 DAR 0:1], 29.97 tb(r)
Stream #0.1(und): Audio: mpeg4aac, 44100 Hz, stereo

Ao final de alguns testes, consegui converter para o seguinte arquivo .wmv:
Stream #0.0: Video: wmv1, yuv420p, 480×360 [PAR 0:1 DAR 0:1], 29.92 tb(r)
Stream #0.1: Audio: wmav2, 44100 Hz, stereo, 64 kb/s

Abaixo segue a linha de comando:
ffmpeg -i video_entrada.mp4 -vcodec wmv1 -acodec wmav2 -deinterlace -sameq video_saida.wmv

Utilizei o codec de vídeo WMV1 e o codec de áudio WMVA2, seguidos pelo deinterlace ( desentrelaçamento do vídeo ) e o sameq ( mesma qualidade de vídeo do original ).

——————————————————-
Instalação do FFmpeg:
FFmpeg: Solução ideal para Áudio e Vídeo

——————————————————

Procedimento de Uso:

ubuntu

Usuários Linux tem sempre mais facilidade, nesse tipo de procedimento.

Basta abrir o Terminal e digitar:

ffmpeg -i video_entrada.mp4 -vcodec wmv1 -acodec wmav2 -deinterlace -sameq video_saida.wmv

Onde meu arquivo se chama video_entrada.mp4 e se encontra na área de trabalho.
( Levando em consideração que ao abrir o terminal você vai estar dentro da pasta home do usuário local )

————————————————————————————————————

logo_windowsUsuários Windows levam mais tempo para poder executar o comando.
Entre em INICIAR > EXECUTAR e digite cmd > OK ( Para abrir o Terminal do Windows )
Acesse a pasta digitando:
cd Desktop/pasta_do_ffmpeg/
em seguida:
ffmpeg.exe -i “../video_entrada.mp4″ -vcodec wmv1 -acodec wmav2 -deinterlace -sameq “../video_saida.wmv”

Onde meu arquivo se chama video_entrada.mp4 e se encontra na área de trabalho.
( Utilizamos ../ para sair da pasta do ffmpeg e acessar o filme.avi a partir da área de trabalho. )

————————————————————————————————————
Leitura recomendada:
Windows VS FFmpeg e Mplayer
————————————————————————————————————